» » Robbie Dupree - Robbie Dupree

Robbie Dupree - Robbie Dupree Album

Tracklist

1 Spanish Bonus Tracks
2Nadie Mas (Nobody Else)3:57
3Thin Line
Written-By – B. Elliott, R. Dupuis
4:05
4We Both Tried
Written-By – B. Champlin, D. Foster
4:49
5Eres Solitaria (Lonely Runner)4:36
6I'm No Stranger
Written-By – R. Dupuis
4:25
7Love Is A Mystery
Written-By – B. Bordy, R. Chudacoff, R. Dupuis
3:33
8Hot Rod Hearts
Written-By – B. LaBounty, S. Geyer
3:41
9Navaguemos (Steal Away)3:25
10Autos De Amor (Hot Rod Hearts)3:31
11Steal Away
Written-By – R. Chudacoff, R. Dupuis
3:34
12Lonely Runner
Written-By – R. Chudacoff, R. Dupuis
4:41
13It's A Feeling
Written-By – R. Dupuis
4:06
14Nobody Else
Written-By – R. Dupuis
3:51

Versions

CategoryArtistTitle (Format)LabelCategoryCountryYear
6E-273Robbie Dupree Robbie Dupree ‎(LP, Album, SP )Elektra6E-273US1980
6E-273Robbie Dupree Robbie Dupree ‎(LP, Album)Elektra6E-273US1980
6E-273Robbie Dupree Robbie Dupree ‎(LP, Album, Club)Elektra6E-273US1980
WPCP-3447Robbie Dupree Robbie Dupree ‎(CD, Album, RE)ElektraWPCP-3447Japan1990
7559-60969-2Robbie Dupree Robbie Dupree ‎(CD, Album)Elektra7559-60969-2GermanyUnknown

Credits

  • Arranged ByBill Elliott (tracks: 3, 7)
  • Art Direction, DesignRon Coro
  • Backing VocalsArno Lucas, Bill LaBounty, Joe Turano, Kal David, Leslie Smith, Matthew Weiner
  • BassRick Chudacoff
  • Congas, PercussionMiguel Rivera
  • Design [Reissue]Lisa Sutton
  • Drums, PercussionPeter Bunetta
  • EngineerGary Brandt
  • Executive-Producer [For Blixa Sounds]Brian Perera, Evan S. Cohen
  • GuitarRobert Palmer
  • Guitar [Additional]Bob Bordy, Brian Ray, Dennis Herring
  • Harmonica, PercussionRobbie Dupree
  • KeyboardsBill Elliott
  • Keyboards [Additional]Bill LaBounty, Rick Chudacoff
  • ManagementAl Bunetta Management
  • Marimba, PercussionAlan Estes
  • Mastered ByBernie Grundman
  • Photography ByJim Shea
  • ProducerPeter Bunetta, Rick Chudacoff
  • Reissue ProducerDan Perloff
  • Remastered ByBill Inglot, Dave Schultz
  • SaxophoneJerry Peterson
  • Sitar [Electric]Kal David
  • SynthesizerMichael Boddicker

Notes

"With the Dupree catalogue, Blixa has issued what should now stand as the definitive, archival versions of the two albums, having worked with the original tapes. The presentation is a hybrid of the digipack and the Japanese mini-LP, printed on fairly inexpensive stock, too springy for the gatefold to close properly and with, alas, no liner notes explaining the provenance of the bonus tracks or the story of the original albums, but still plastic-free and more attractive than a jewel case presentation. The glaring oversights are the songwriting credits, all notable by their absence. The most important aspect, however, the music, has been entrusted to Bill Inglot and Dave Schultz, remastering engineers whose names are synonymous with care and quality." (source: https://www.popmatters.com/robbie-dupree-street-corner-heroes-2563262141.html)

℗ 1980 Extra Term Audio LLC for the United States, except Spanish Bonus Tracks: ℗ 2018 Extra Term Audio LLC
© 2018 Extra Term Audio LLC for the United States

Barcodes

  • Barcode (Text): 8 50947-00801 6
  • Barcode (Scanned): 850947008016
  • Matrix / Runout: C19080779 ETA 801 ROBBIE DUPREE
  • Mastering SID Code: IFPI IW44
  • Mould SID Code: IFPI ALJ09

Companies

  • Phonographic Copyright (p) – Extra Term Audio LLC
  • Copyright (c) – Extra Term Audio LLC
  • Recorded At – Alpha Studios, Burbank
  • Mixed At – Alpha Studios, Burbank
  • Mastered At – A&M Studios

Video

Robbie Dupree - Robbie Dupree Album

Performer: Robbie Dupree

Title: Robbie Dupree

Country: US

Release date: 27 Apr 2018

Label: Blixa Sounds

Style: Pop Rock, Soft Rock

Catalog: ETA 801

Genre: Rock

Size MP3: 1225 mb

Size FLAC: 2734 mb

Rating: 4.9 / 5

Votes: 018

Record source: CD, Album, Reissue, Remastered, Paper Sleeve

Related to Robbie Dupree - Robbie Dupree

Burirus
foobar2000 1.3.17 / Dynamic Range Meter 1.1.1
log date: 2018-05-05 15:17:50

--------------------------------------------------------------------------------
Analyzed: Robbie Dupree / Robbie Dupree
--------------------------------------------------------------------------------

DR Peak RMS Duration Track
--------------------------------------------------------------------------------
DR11 -1.34 dB -15.15 dB 3:34 01-Steal Away
DR11 -1.50 dB -15.08 dB 4:25 02-I'm No Stranger
DR12 -1.16 dB -15.63 dB 4:05 03-Thin Line
DR12 -1.36 dB -16.73 dB 4:06 04-It's a Feeling
DR10 -1.37 dB -14.15 dB 3:41 05-Hot Rod Hearts
DR9 -0.89 dB -13.50 dB 3:51 06-Nobody Else
DR10 -1.21 dB -14.64 dB 4:49 07-We Both Tried
DR12 -1.10 dB -16.81 dB 3:33 08-Love is a Mystery
DR12 -0.75 dB -15.23 dB 4:41 09-Lonely Runner
DR10 -1.46 dB -14.50 dB 3:25 10-Navaguemos
DR11 -1.32 dB -14.89 dB 3:57 11-Nadie Mas
DR10 -1.09 dB -14.35 dB 3:31 12-Autos De Amor
DR13 -1.59 dB -16.87 dB 4:36 13-Eres Solitaria
--------------------------------------------------------------------------------

Number of tracks: 13
Official DR value: DR11

Samplerate: 44100 Hz
Channels: 2
Bits per sample: 16
Bitrate: 917 kbps
Codec: ALAC
================================================================================
Burirus
foobar2000 1.3.17 / Dynamic Range Meter 1.1.1
log date: 2018-05-05 15:17:50

--------------------------------------------------------------------------------
Analyzed: Robbie Dupree / Robbie Dupree
--------------------------------------------------------------------------------

DR Peak RMS Duration Track
--------------------------------------------------------------------------------
DR11 -1.34 dB -15.15 dB 3:34 01-Steal Away
DR11 -1.50 dB -15.08 dB 4:25 02-I'm No Stranger
DR12 -1.16 dB -15.63 dB 4:05 03-Thin Line
DR12 -1.36 dB -16.73 dB 4:06 04-It's a Feeling
DR10 -1.37 dB -14.15 dB 3:41 05-Hot Rod Hearts
DR9 -0.89 dB -13.50 dB 3:51 06-Nobody Else
DR10 -1.21 dB -14.64 dB 4:49 07-We Both Tried
DR12 -1.10 dB -16.81 dB 3:33 08-Love is a Mystery
DR12 -0.75 dB -15.23 dB 4:41 09-Lonely Runner
DR10 -1.46 dB -14.50 dB 3:25 10-Navaguemos
DR11 -1.32 dB -14.89 dB 3:57 11-Nadie Mas
DR10 -1.09 dB -14.35 dB 3:31 12-Autos De Amor
DR13 -1.59 dB -16.87 dB 4:36 13-Eres Solitaria
--------------------------------------------------------------------------------

Number of tracks: 13
Official DR value: DR11

Samplerate: 44100 Hz
Channels: 2
Bits per sample: 16
Bitrate: 917 kbps
Codec: ALAC
================================================================================